Polygram Demonstration Disc

Digitale schijfjes en analoge MFB boxen gaan ontzettend goed samen... Alles over CD spelers, DAC's en loopwerken hier!

Moderator: Moderators

Plaats reactie
Gebruikersavatar
bramjacobse
Berichten: 1487
Lid geworden op: 22 aug 2014, 09:02
Locatie: Almere-Haven
Contacteer:

12 sep 2018, 15:05

Weer 1 voor de collectie 8-)

Afbeelding
Afbeelding
Afbeelding
snameroc
Berichten: 4125
Lid geworden op: 01 mei 2010, 12:45

12 sep 2018, 15:35

Mooi.

Durf het bijna niet te vragen maar zou je een kopie willen maken of via wetransfer de wave files sturen?

Johan
Gebruikersavatar
bramjacobse
Berichten: 1487
Lid geworden op: 22 aug 2014, 09:02
Locatie: Almere-Haven
Contacteer:

16 okt 2018, 12:57

Weer 1 .. :violin:

Afbeelding


Klikklak
Forsyth
Berichten: 1061
Lid geworden op: 27 apr 2015, 09:42
Locatie: Oost brabant

16 okt 2018, 13:28

bramjacobse schreef:
16 okt 2018, 12:57
Weer 1 .. :violin:

Afbeelding


Klikklak
Hebben ze bij jou in de buurt een speciale winkel of KL van dat spul? :shock:
Genoeg :lol: , of toch niet?
Gebruikersavatar
bramjacobse
Berichten: 1487
Lid geworden op: 22 aug 2014, 09:02
Locatie: Almere-Haven
Contacteer:

16 okt 2018, 17:02

Het internet is 1 grote Kringloop... :idea:
Gebruikersavatar
bramjacobse
Berichten: 1487
Lid geworden op: 22 aug 2014, 09:02
Locatie: Almere-Haven
Contacteer:

21 okt 2018, 12:15

Van voor de luidheid-oorlog..:-)

Demonstration disc

DR Peak RMS Filename

DR14 -1.09 dB -16.91 dB 01 - Avalon (Roxy Music).wav
DR12 -1.70 dB -16.34 dB 02 - Blue eyes (Elton John).wav
DR14 -3.30 dB -22.94 dB 03 - The way we were (Stanley Black).wav
DR12 -1.40 dB -15.12 dB 04 - Circle of love (Steve Miller Band).wav
DR12 -2.69 dB -18.93 dB 05 - Charlots of fire (Vangelis).wav
DR14 -2.73 dB -17.78 dB 06 - Staying alive (Bee Gees).wav
DR14 -2.00 dB -20.93 dB 07 - Romeo und Juliet (Dire Strait).wav
DR13 -2.24 dB -20.42 dB 08 - La fanciulla del West (Giacomo Puccini).wav
DR13 -2.44 dB -20.53 dB 09 - La Damnation de Faust (Hector Berlioz).wav
DR13 -3.18 dB -19.56 dB 10 - Conc. fpr Piano and Orchestra no. 21 (Mozart).wav
DR15 -0.80 dB -22.86 dB 11 - Symphony no. 1 in D (Gustav Mahler).wav

Number of files: 12
Official DR value: DR13

------------

Sampler USA

DR Peak RMS Filename

DR15 -1.07 dB -18.24 dB 01 - Lipps Inc.wav
DR13 -3.02 dB -18.76 dB 02 - John Cougar.wav
DR16 -2.09 dB -19.77 dB 03 - Kool & the Gang.wav
DR14 -3.35 dB -19.06 dB 04 - Statler Bros..wav
DR14 -1.45 dB -18.39 dB 05 - Stephanie Mills.wav
DR13 -3.67 dB -19.50 dB 06 - Mac Davis.wav
DR14 -1.31 dB -17.25 dB 07 - Irene Cara.wav
DR13 -2.45 dB -18.21 dB 08 - Tom Jones.wav
DR12 -2.75 dB -18.86 dB 09 - Main Title Star Wars
DR14 -0.90 dB -17.00 dB 10 - ABC Band.wav
DR12 -2.51 dB -16.49 dB 11 - Dexys Midnight Runners.wav
DR14 -0.40 dB -15.57 dB 12 - Rush.wav


Number of files: 12
Official DR value: DR14
Gebruikersavatar
pong38
Berichten: 465
Lid geworden op: 17 apr 2010, 19:23

21 okt 2018, 12:35

Ik heb een behoorlijk aantal van die Philips/Aristona demonstration cd's.
In één ding blinken ze in iedergeval niet uit en dat is geluidskwaliteit. Bijna zonder uitzondering klinken tracks erg dun en met weinig dynamiek.
En nee, ik draai zonder loudness (zit er niet eens op) :mrgreen:

Mijn inschatting is dat men toendertijd met dit soort cd's iets heel anders wilde aantonen/laten horen :roll:
Gebruikersavatar
Jeroen
Berichten: 618
Lid geworden op: 25 jun 2005, 15:23

22 okt 2018, 16:23

Tegenwoordig mag je blij zijn als het niet lager dan DR6 komt..

De tracks zijn stukjes van andere cd's uit die tijd. Roxy Music Avalon is een hires (sacd?) van die is erg goed.
Die plaat roept sowieso mooi herinneringen op.

Tip: achtergrond muziek in slaapkamer.. meer zeg ik niet 8)
Plaats reactie