Er zijn 966 resultaten gevonden

door bramjacobse
wo nov 14, 2018 7:20 am
Forum: Koffiekorner
Onderwerp: Nieuwe aanwinsten
Reacties: 14117
Weergaves: 2859548

Re: Nieuwe aanwinsten

Alleen nog eens een optische uitgang vinden want die was eraf geknipt, zal ook wel in het kader van 'modificatie' zijn geweest :doh:

Goed bezig Remi.! :clap:

Het ronde gat vierkant vijlen en een "TOTX173" op een vlooien printje :whistle: ...en je heb een werkende s/pdif

Gr Bram
door bramjacobse
di nov 13, 2018 8:08 pm
Forum: Non-Philips projecten
Onderwerp: JVC XL V1 CD speler
Reacties: 6
Weergaves: 93

Re: JVC XL V1 CD speler

De speler heeft 1 hoofdprint op de bodem en daar staan 4 printen haaks op met connectors. Als ik het zo bekijk is dat behoorlijk makkelijk te demonteren. Best wel stoffig.. :shock: https://www.bramjacobse.nl/show/mfbfreak/jvc-xl-v1/jvc_xl-v1-dirt-2.JPG https://www.bramjacobse.nl/show/mfbfreak/jvc-xl...
door bramjacobse
di nov 13, 2018 2:53 pm
Forum: Non-Philips projecten
Onderwerp: JVC XL V1 CD speler
Reacties: 6
Weergaves: 93

JVC XL V1 CD speler

Of ik even naar een JVC XL V1 cd speler wil kijken, ik vind hem prachtig :D

Afbeelding

- CD lader gaat moeizaam open en dicht
- Audio onderbrekingen en klinkt muf. lijkt hoog te missen

:think: :geek:
door bramjacobse
ma nov 12, 2018 8:42 pm
Forum: Compact Disc
Onderwerp: Serienummers CD100
Reacties: 259
Weergaves: 97626

Re: Serienummers CD100

cd100-a01322-37049.jpg
Van marktplaats CD100
door bramjacobse
ma nov 12, 2018 4:05 pm
Forum: Compact Disc
Onderwerp: CD303 display frontje
Reacties: 2
Weergaves: 77

CD303 display frontje

Heb een CD303 met een dof / melkachtig display front. Dat wil ik anders :-) Voorbeeld van Internet ( airmax ) https://www.bramjacobse.nl/show/mfbfreak/cd303/cd303-example.jpg Mijn eerste cad probeersels.. :ugeek: https://www.bramjacobse.nl/show/mfbfreak/cd303/cd303-cad-2.jpg https://www.bramjacobse....
door bramjacobse
zo nov 11, 2018 11:37 am
Forum: Updates en Mededelingen
Onderwerp: Meeting 10 November 2018 -nieuwe datum- AANMELDTOPIC
Reacties: 126
Weergaves: 10280

Re: Meeting 10 November 2018 -nieuwe datum- AANMELDTOPIC

Beterschap Bram en Mark. :pray:

Dankje wel..erg jammer dat ik heb gemist.
door bramjacobse
za nov 10, 2018 9:13 am
Forum: Updates en Mededelingen
Onderwerp: Meeting 10 November 2018 -nieuwe datum- AANMELDTOPIC
Reacties: 126
Weergaves: 10280

Re: Meeting 10 November 2018 -nieuwe datum- AANMELDTOPIC

Tot mijn grote spijt heb ik me afmoeten melden , ben te verkouden .. :auto-ambulance:

Gr bram
door bramjacobse
zo nov 04, 2018 4:45 pm
Forum: Compact Disc
Onderwerp: Serienummers CD100
Reacties: 259
Weergaves: 97626

Re: Serienummers CD100

Marktplaats exemplaar
Screen Shot 2018-11-04 at 16.44.18.jpg
door bramjacobse
zo nov 04, 2018 11:27 am
Forum: Compact Disc
Onderwerp: Sony CDP 101
Reacties: 13
Weergaves: 621

Re: Sony CDP 101

Daar kunnen we ook mee verder :-)

Afbeelding
door bramjacobse
zo nov 04, 2018 11:25 am
Forum: Compact Disc
Onderwerp: Serienummers CD100
Reacties: 259
Weergaves: 97626

Re: Serienummers CD100

Nu nog defect ...maar komt goed .. :ugeek:

Afbeelding
door bramjacobse
zo nov 04, 2018 10:04 am
Forum: Koffiekorner
Onderwerp: HET FORUM WERKT WEER - Bijdrage aan het forum?
Reacties: 87
Weergaves: 1604

Re: HET FORUM WERKT WEER - Bijdrage aan het forum?

Donatie gedaan , enne nu het Forum nog naar HTTPS

Gr Bram
door bramjacobse
zo nov 04, 2018 9:40 am
Forum: Koffiekorner
Onderwerp: en wat heb je vandaag gedaan?
Reacties: 15880
Weergaves: 2548385

Re: en wat heb je vandaag gedaan?

Forum was offline , dus maar een beetje geknutseld

Van 3 halve CD 104'tjes

Afbeelding

2 werkende gemaakt :geek:

Afbeelding
door bramjacobse
zo nov 04, 2018 9:30 am
Forum: Koffiekorner
Onderwerp: Thomas is jarig
Reacties: 34
Weergaves: 365

Re: Thomas is jarig

Gephilipsiteerd :happy-wavemulticolor:
door bramjacobse
za nov 03, 2018 9:37 pm
Forum: Koffiekorner
Onderwerp: HET FORUM WERKT WEER - Bijdrage aan het forum?
Reacties: 87
Weergaves: 1604

Re: HET FORUM WERKT WEER

:clap: :dance:
door bramjacobse
zo okt 21, 2018 12:15 pm
Forum: Compact Disc
Onderwerp: Polygram Demonstration Disc
Reacties: 7
Weergaves: 516

Re: Polygram Demonstration Disc

Van voor de luidheid-oorlog..:-) Demonstration disc DR Peak RMS Filename DR14 -1.09 dB -16.91 dB 01 - Avalon (Roxy Music).wav DR12 -1.70 dB -16.34 dB 02 - Blue eyes (Elton John).wav DR14 -3.30 dB -22.94 dB 03 - The way we were (Stanley Black).wav DR12 -1.40 dB -15.12 dB 04 - Circle of love (Steve Mi...

Ga naar uitgebreid zoeken